<?xml version="1.0" standalone="no"?>
<!DOCTYPE svg PUBLIC "-//W3C//DTD SVG 1.1//EN" "http://www.w3.org/Graphics/SVG/1.1/DTD/svg11.dtd" >
<svg xmlns="http://www.w3.org/2000/svg">
<metadata>Generated by IcoMoon</metadata>
<defs>
<font id="doctor-fox" horiz-adv-x="1024">
<font-face units-per-em="1024" ascent="960" descent="-64" />
<missing-glyph horiz-adv-x="1024" />
<glyph unicode="&#x20;" horiz-adv-x="512" d="" />
<glyph unicode="&#xe600;" glyph-name="hamburger" d="M981.344 192h-938.688c-11.552 0-21.568-4.224-30.016-12.672-8.416-8.416-12.64-18.432-12.64-29.984v-85.344c0-11.552 4.224-21.536 12.672-30.016 8.48-8.416 18.464-12.672 30.016-12.672h938.656c11.584 0 21.568 4.224 30.016 12.672 8.416 8.48 12.64 18.464 12.64 30.016v85.344c0 11.552-4.192 21.568-12.672 29.984-8.416 8.448-18.4 12.672-29.984 12.672v0zM1011.328 862.016c-8.416 8.416-18.432 12.672-30.016 12.672h-938.656c-11.552 0-21.568-4.224-30.016-12.672-8.416-8.448-12.64-18.464-12.64-30.016v-85.344c0-11.552 4.224-21.536 12.672-29.952 8.448-8.48 18.464-12.704 29.984-12.704h938.656c11.584 0 21.568 4.224 30.016 12.704 8.448 8.416 12.672 18.4 12.672 29.952v85.344c0 11.552-4.192 21.568-12.672 30.016v0zM981.344 533.344h-938.688c-11.552 0-21.568-4.224-30.016-12.672-8.416-8.416-12.64-18.464-12.64-29.984v-85.344c0-11.552 4.224-21.568 12.672-30.016 8.48-8.416 18.464-12.672 30.016-12.672h938.656c11.584 0 21.568 4.224 30.016 12.672 8.416 8.416 12.64 18.464 12.64 30.016v85.344c0 11.552-4.224 21.568-12.672 29.984-8.416 8.448-18.4 12.672-29.984 12.672v0z" />
<glyph unicode="&#xe601;" glyph-name="facebook" d="M376.352 761.696c0-25.792 0-140.992 0-140.992h-103.296v-172.384h103.296v-512.32h212.192v512.288h142.368c0 0 13.344 82.656 19.808 173.056-18.528 0-161.376 0-161.376 0s0 100.288 0 117.888c0 17.632 23.136 41.312 45.984 41.312 22.816 0 70.976 0 115.616 0 0 23.488 0 104.576 0 179.488-59.552 0-127.328 0-157.184 0-222.656-0.032-217.408-172.576-217.408-198.336z" />
<glyph unicode="&#xe602;" glyph-name="google-plus" d="M662.208 960h-244.224c-108.8 0-184.128-23.872-251.936-79.872-53.312-45.984-85.152-112.864-85.152-178.848 0-101.664 77.504-209.728 221.184-209.728 13.824 0 29.12 1.408 42.592 2.688l-1.984-4.832c-5.76-13.824-11.232-26.88-11.232-47.264 0-39.648 19.136-64.128 37.632-87.744l2.336-3.008-4.128-0.288c-59.328-4.064-169.728-11.648-250.368-61.216-95.264-56.64-102.656-139.008-102.656-162.912 0-95.040 88.576-191.008 286.496-191.008 230.112 0 350.528 126.976 350.528 252.352 0.032 92.768-54.368 138.56-112.096 187.168l-48.704 37.888c-15.040 12.48-33.792 27.968-33.792 56.736 0 28.256 18.752 46.912 35.296 63.36l1.728 1.76c52.608 41.44 112.192 88.384 112.192 189.984 0 102.144-63.84 154.912-94.528 180.288h81.056c0.992 0 1.984 0.288 2.816 0.8l69.824 43.904c1.984 1.248 2.912 3.68 2.272 5.952-0.704 2.272-2.816 3.84-5.152 3.84zM366.048-8.032c-140.288 0-234.528 65.504-234.528 163.040 0 63.68 38.56 109.952 114.464 137.44 60.8 20.448 139.296 21.472 140.064 21.472 13.28 0 19.968 0 30.592-1.344 98.144-69.856 145.344-106.528 145.344-176.384 0-88.96-75.072-144.224-195.936-144.224zM364.736 528.992c-117.728 0-166.592 154.752-166.592 237.6 0 42.144 9.568 74.464 29.28 98.88 21.408 26.752 58.016 44.064 93.344 44.064 108.096 0 167.872-145.28 167.872-245.696 0-15.84 0-64.032-33.28-97.504-22.4-22.336-58.816-37.344-90.624-37.344zM1004.48 481.728h-128.672v128.224c0 2.912-2.368 5.28-5.28 5.28h-55.36c-2.912 0-5.28-2.368-5.28-5.28v-128.224h-128.032c-2.912 0-5.28-2.368-5.28-5.28v-56.096c0-2.912 2.368-5.28 5.28-5.28h128.032v-129.056c0-2.912 2.368-5.28 5.28-5.28h55.36c2.912 0 5.28 2.368 5.28 5.28v129.088h128.672c2.912 0 5.28 2.368 5.28 5.28v56.064c0.032 2.944-2.336 5.28-5.28 5.28z" />
<glyph unicode="&#xe603;" glyph-name="twitter" d="M1024 765.568c-37.664-16.704-78.176-28-120.672-33.088 43.36 25.984 76.672 67.168 92.384 116.224-40.608-24.064-85.568-41.568-133.408-50.976-38.304 40.832-92.928 66.336-153.344 66.336-116.032 0-210.080-94.048-210.080-210.080 0-16.48 1.856-32.512 5.44-47.872-174.592 8.768-329.408 92.384-433.024 219.52-18.080-31.040-28.448-67.104-28.448-105.632 0-72.896 37.088-137.184 93.472-174.88-34.432 1.088-66.816 10.528-95.168 26.272-0.032-0.864-0.032-1.76-0.032-2.656 0-101.792 72.416-186.688 168.512-205.984-17.632-4.8-36.192-7.36-55.36-7.36-13.536 0-26.688 1.312-39.52 3.776 26.72-83.456 104.32-144.192 196.256-145.888-71.904-56.352-162.496-89.92-260.928-89.92-16.96 0-33.664 0.992-50.112 2.944 92.96-59.616 203.392-94.4 322.048-94.4 386.432 0 597.728 320.128 597.728 597.728 0 9.12-0.224 18.176-0.608 27.168 41.088 29.664 76.704 66.656 104.864 108.768z" />
<glyph unicode="&#xe604;" glyph-name="vimeo" d="M874.88 860.864c99.072-2.592 148.64-58.848 149.12-168.864 0-7.232-0.256-14.72-0.64-22.432-4.384-93.28-73.792-220.352-208.512-381.184-138.944-168.48-256.832-252.832-353.664-253.248-60.224 0-110.24 51.584-150.368 154.784l-42.144 141.472-41.632 141.248c-30.688 102.368-63.52 153.44-98.528 153.44-7.648 0-34.24-14.944-79.872-44.704l-48.64 57.536 75.456 62.688 74.208 62.048c66.464 53.248 116.992 82.016 151.68 86.304 4.608 0.48 9.248 0.64 13.952 0.64 71.168 0 115.616-51.136 133.056-153.44 9.728-58.368 17.792-105.792 24.32-142.24 6.336-36.544 11.648-61.984 15.872-76.48 23.52-96.768 48.864-145.408 76.128-145.792 20.928 0 53.152 31.52 96.672 94.592 42.528 64.8 65.44 112.768 68.384 144.032 0.928 6.336 1.28 12.288 1.28 17.792 0 42.304-23.296 63.36-69.664 63.36-23.52 0-48.64-5.024-75.488-14.688 48.128 148.384 140.672 222.72 277.536 223.2 3.808-0.064 7.584-0.064 11.488-0.064z" />
<glyph unicode="&#xe605;" glyph-name="circle-arrow-down" d="M956.8 704c-44.8 80-108.8 140.8-185.6 185.6-80 48-166.4 70.4-259.2 70.4s-179.2-22.4-256-67.2c-80-48-140.8-108.8-188.8-188.8-44.8-76.8-67.2-163.2-67.2-256s22.4-179.2 67.2-256c44.8-80 108.8-140.8 185.6-185.6 80-44.8 163.2-67.2 256-67.2s179.2 22.4 256 67.2c80 44.8 140.8 108.8 185.6 185.6 44.8 80 67.2 163.2 67.2 256 6.4 92.8-16 179.2-60.8 256v0zM844.8 419.2l-60.8-60.8-240-243.2c-6.4-6.4-19.2-12.8-28.8-12.8-12.8 0-22.4 3.2-28.8 12.8l-60.8 60.8c-9.6 9.6-12.8 19.2-12.8 28.8 0 12.8 3.2 22.4 12.8 28.8l124.8 124.8h-336c-12.8 0-22.4 3.2-28.8 12.8-9.6 9.6-12.8 19.2-12.8 28.8v86.4c0 12.8 3.2 22.4 12.8 28.8 9.6 9.6 19.2 12.8 28.8 12.8h336l-124.8 124.8c-6.4 6.4-12.8 19.2-12.8 28.8 0 12.8 3.2 22.4 12.8 28.8l60.8 60.8c6.4 6.4 19.2 12.8 28.8 12.8 12.8 0 22.4-3.2 28.8-12.8l300.8-300.8c6.4-6.4 12.8-19.2 12.8-28.8 0-6.4-6.4-16-12.8-22.4v0z" />
<glyph unicode="&#xe60b;" glyph-name="admin-edit" d="M389.44 448.256c58.656 0 108.704 20.768 150.176 62.272 41.504 41.472 62.24 91.52 62.24 150.176 0 58.624-20.704 108.672-62.24 150.176-41.472 41.472-91.52 62.24-150.176 62.24s-108.704-20.768-150.176-62.24c-41.504-41.504-62.24-91.552-62.24-150.176 0-58.656 20.736-108.704 62.24-150.176 41.472-41.504 91.52-62.272 150.176-62.272zM649.12 472.608c-18.624 7.36-39.2 11.040-61.664 11.040-3.328 0-11.072-3.936-23.232-11.872-12.16-7.968-25.888-16.8-41.216-26.56-15.328-9.792-35.232-18.624-59.744-26.56-24.544-7.936-49.12-11.904-73.856-11.904-24.704 0-49.312 3.968-73.824 11.904-24.544 7.936-44.48 16.768-59.744 26.56-15.328 9.76-29.056 18.592-41.216 26.56-12.16 7.904-19.936 11.872-23.232 11.872-22.496 0-43.072-3.68-61.664-11.040-18.624-7.392-34.432-17.248-47.296-29.6-12.896-12.352-24.32-27.296-34.272-44.832-9.984-17.504-17.92-35.488-23.808-53.92s-10.784-38.464-14.656-60.032-6.496-41.632-7.776-60.256c-1.28-18.624-1.92-37.696-1.92-57.28 0-44.224 13.472-79.168 40.384-104.832 26.912-25.6 62.688-38.4 107.296-38.4h265.472v175.744l260.928 260.928c-7.648 4.736-15.936 8.928-24.96 12.48zM1008.512 485.376l-84.096 84.064c-10.304 10.304-22.848 15.488-37.6 15.488s-27.296-5.184-37.632-15.488l-50.88-50.88 159.328-159.328 50.88 50.88c10.304 10.336 15.488 22.88 15.488 37.632s-5.184 27.264-15.488 37.632zM461.984 182.24v-159.328h159.328l300.928 300.928-159.328 159.328-300.928-300.928zM599.168 76h-30.976v53.088h-53.12v30.976l28.768 28.768 84.064-84.064-28.736-28.768zM772.864 404.576c5.184-4.768 4.608-10.304-1.664-16.576l-160.992-160.96c-6.272-6.304-11.808-6.816-16.576-1.664-5.184 4.768-4.608 10.304 1.664 16.576l160.96 160.96c6.272 6.304 11.808 6.848 16.608 1.664z" />
<glyph unicode="&#xe60c;" glyph-name="admin" d="M512 447.968c70.688 0 131.008 25.024 180.992 75.040 50.048 49.984 75.008 110.304 75.008 180.992 0 70.656-24.96 130.976-75.008 180.992-49.984 49.984-110.304 75.008-180.992 75.008s-131.008-25.024-180.992-75.008c-50.016-50.016-75.008-110.336-75.008-180.992 0-70.688 24.992-131.008 75.008-180.992 49.984-50.016 110.304-75.040 180.992-75.040v0zM979.008 177.632c-1.568 22.464-4.672 46.656-9.344 72.672-4.64 26.016-10.56 50.144-17.664 72.352s-16.672 43.872-28.672 64.96c-12 21.12-25.76 39.104-41.312 54.016-15.584 14.912-34.56 26.752-57.024 35.68-22.464 8.864-47.232 13.312-74.304 13.312-4 0-13.344-4.768-28-14.304-14.656-9.6-31.2-20.256-49.664-32-18.464-11.808-42.464-22.464-72-32-29.568-9.568-59.2-14.336-89.024-14.336-29.76 0-59.424 4.8-88.992 14.336s-53.6 20.224-72 32c-18.464 11.744-35.008 22.4-49.664 32-14.656 9.536-24.032 14.304-28 14.304-27.104 0-51.904-4.448-74.304-13.312-22.464-8.896-41.472-20.768-57.024-35.68s-29.312-32.896-41.312-54.016c-12.032-21.088-21.568-42.752-28.704-64.96-7.104-22.208-12.992-46.336-17.664-72.352s-7.808-50.208-9.344-72.672c-1.568-22.432-2.336-45.44-2.336-69.024 0-53.312 16.224-95.424 48.672-126.336 32.448-30.816 75.552-46.272 129.312-46.272h582.72c53.792 0 96.864 15.456 129.344 46.304 32.448 30.912 48.672 73.024 48.672 126.336-0.032 23.584-0.832 46.592-2.368 68.992v0z" />
<glyph unicode="&#xe60d;" glyph-name="arrow-block-down" d="M1004.992 717.024c-12.64 12.64-27.616 18.976-44.992 18.976h-896c-17.312 0-32.352-6.336-45.024-18.976-12.608-12.704-18.976-27.712-18.976-45.024s6.368-32.288 18.976-44.992l448-448c12.736-12.672 27.712-19.008 45.024-19.008s32.352 6.368 45.024 19.008l448 448c12.608 12.704 18.976 27.68 18.976 44.992s-6.368 32.32-19.008 45.024v0z" />
<glyph unicode="&#xe60e;" glyph-name="arrow-block-right" d="M781.024 493.024l-448 448c-12.736 12.64-27.712 18.976-45.024 18.976s-32.384-6.336-45.024-19.008c-12.64-12.64-18.976-27.68-18.976-44.992v-896c0-17.312 6.336-32.352 19.008-45.024 12.672-12.64 27.68-18.976 44.992-18.976s32.288 6.336 44.992 19.008l448 448c12.672 12.64 19.008 27.68 19.008 44.992s-6.336 32.32-18.976 45.024v0z" />
<glyph unicode="&#xe60f;" glyph-name="arrow-block-up" d="M1004.992 269.024l-448 448c-12.64 12.64-27.616 18.976-44.992 18.976-17.312 0-32.288-6.368-44.992-18.976l-448-448c-12.64-12.704-19.008-27.712-19.008-45.024s6.368-32.352 18.976-45.024c12.736-12.64 27.712-18.976 45.024-18.976h896c17.376 0 32.352 6.368 45.024 19.008s18.976 27.68 18.976 44.992c0 17.312-6.368 32.32-19.008 45.024v0z" />
<glyph unicode="&#xe610;" glyph-name="arrow-left" d="M719.168 960c24.992 0 49.984-9.536 69.056-28.608 38.144-38.144 38.144-99.968 0-138.112l-345.28-345.28 345.28-345.28c38.144-38.144 38.144-99.968 0-138.112s-99.968-38.144-138.112 0l-414.336 414.336c-18.336 18.304-28.608 43.136-28.608 69.056s10.272 50.752 28.608 69.056l414.336 414.336c19.072 19.072 44.064 28.608 69.056 28.608z" />
<glyph unicode="&#xe611;" glyph-name="arrow-right" d="M304.832-64c-24.992 0-49.984 9.536-69.056 28.608-38.144 38.144-38.144 99.968 0 138.112l345.28 345.28-345.28 345.28c-38.144 38.144-38.144 99.968 0 138.112s99.968 38.144 138.112 0l414.336-414.336c18.336-18.304 28.608-43.168 28.608-69.056s-10.272-50.752-28.608-69.056l-414.336-414.336c-19.072-19.072-44.064-28.608-69.056-28.608z" />
<glyph unicode="&#xe612;" glyph-name="arrow-up" d="M999.712 479.552l-427.904 427.872c-16.192 16.192-36.128 24.32-59.808 24.32-24.064 0-43.808-8.096-59.168-24.288l-427.84-427.904c-16.672-16.672-24.992-36.608-24.992-59.808 0-22.816 8.352-42.496 24.992-59.168l49.28-49.28c15.808-16.672 35.52-25.024 59.168-25.024 23.68 0 43.36 8.352 59.168 25.024l193.248 192.576v-462.72c0-22.784 8.192-41.28 24.608-55.552s36.288-21.344 59.488-21.344h84.128c23.232 0 43.072 7.104 59.488 21.344 16.416 14.208 24.64 32.768 24.64 55.552v462.72l193.248-192.576c15.776-16.672 35.456-25.024 59.168-25.024 23.2 0 43.136 8.352 59.808 25.024l49.28 49.28c16.16 17.088 24.288 36.8 24.288 59.168 0 22.752-8.128 42.688-24.288 59.808v0z" />
<glyph unicode="&#xe613;" glyph-name="cart-list" d="M532.416 634.976c-5.696-20.928 6.592-42.56 27.584-48.288l177.376-55.296c3.392-0.928 6.944-1.44 10.432-1.44 17.248 0 32.992 11.488 37.824 28.928 5.76 20.96-6.656 42.56-27.552 48.288l-177.376 55.328c-20.704 5.696-42.56-6.592-48.288-27.52zM364.16 346.688c-7.328-19.744 2.848-41.792 22.496-49.088l214.432-79.68 13.312 35.808-207.264 77.024c-1.824 0.672-2.912 3.072-2.24 4.896l0.64 1.728 27.36 24.384 132.32-49.184c14.208-5.28 27.616-2.112 37.024 6.624l107.488 92.256c4.896 2.24 5.6 4.096 6.912 7.68 3.936 10.624-0.544 20.448-11.296 24.448l-264.544 98.304-2.72 41.76-59.008 21.92-13.312-35.776 35.776-13.28 13.824-159.712-40.992-33.632c-3.744-4.704-8.256-11.168-10.208-16.48zM1018.528 796v0c-5.76 9.6-15.232 16.352-26.144 18.528l-580.032 139.84c-19.104 3.712-37.984-6.848-44.608-25.12l-234.432-593.664 73.792-26.88 222.848 566.048 504-128.608c-31.488-97.568-106.368-301.248-178.176-490.88-62.592-165.44-98.592-222.112-167.072-233.664-0.064 0.096-0.16 0.16-0.16 0.288-90.592-12.704-121.472 57.6-132 108.768l-456.48 184.384c-0.032-2.208-0.064-4.384-0.064-6.56 0.192-157.28 127.2-197.024 127.2-197.024l327.168-148.544c0.064-0.032 51.136-24.384 106.656-21.856 149.728 3.52 202.336 112.224 268.256 286.4 95.264 251.744 191.904 533.76 192.864 536.768 3.424 10.688 2.080 22.208-3.616 31.776zM605.824 698.080l178.208-52.48c3.424-0.864 6.944-1.312 10.432-1.248 17.216 0.288 32.8 12 37.376 29.504 5.408 21.024-7.328 42.464-28.32 47.84l-178.208 52.512c-20.768 5.408-42.432-7.232-47.808-28.256s7.232-42.464 28.32-47.872zM330.944 257.312c-7.328-19.744 2.848-41.792 22.496-49.088s41.664 2.816 48.992 22.528c7.296 19.616-2.784 41.664-22.432 48.928-19.648 7.296-41.792-2.752-49.056-22.368zM509.664 190.88c-7.328-19.712 2.848-41.792 22.496-49.088s41.664 2.816 48.992 22.528c7.296 19.616-2.784 41.664-22.432 48.96-19.616 7.296-41.76-2.784-49.056-22.4zM494.15 815.176c24.068 0.38 43.879-18.264 44.249-41.643s-18.842-42.64-42.911-43.020c-24.068-0.38-43.879 18.264-44.249 41.643s18.842 42.64 42.911 43.020zM493.76 663.136c0-23.382-19.513-42.336-43.584-42.336s-43.584 18.954-43.584 42.336c0 23.382 19.513 42.336 43.584 42.336s43.584-18.954 43.584-42.336z" />
<glyph unicode="&#xe614;" glyph-name="cart-plus" d="M787.68 93.536c0-21.728 7.68-40.32 23.072-55.68 15.392-15.392 33.952-23.072 55.68-23.072s40.32 7.68 55.68 23.072c15.392 15.392 23.072 33.952 23.072 55.68s-7.68 40.32-23.072 55.68c-15.392 15.392-33.952 23.072-55.68 23.072s-40.32-7.68-55.68-23.072c-15.36-15.36-23.072-33.92-23.072-55.68zM236.32 93.536c0-21.728 7.68-40.32 23.072-55.68 15.392-15.392 33.952-23.072 55.68-23.072s40.32 7.68 55.68 23.072c15.392 15.392 23.072 33.952 23.072 55.68s-7.68 40.32-23.072 55.68c-15.392 15.392-33.952 23.072-55.68 23.072s-40.32-7.68-55.68-23.072c-15.392-15.36-23.072-33.92-23.072-55.68zM1012.32 790.784c-7.808 7.808-17.024 11.68-27.68 11.68h-739.104c-0.416 2.88-1.344 8.096-2.752 15.68-1.44 7.584-2.56 13.632-3.392 18.144s-2.368 9.952-4.608 16.32c-2.272 6.368-4.928 11.392-8 15.072-3.104 3.712-7.2 6.88-12.32 9.536s-10.976 4-17.536 4h-157.536c-10.656 0-19.904-3.904-27.68-11.68-7.808-7.808-11.712-17.024-11.712-27.68s3.904-19.904 11.68-27.68c7.808-7.808 17.024-11.68 27.68-11.68h125.536l108.96-506.496c-0.832-1.632-5.024-9.44-12.608-23.392s-13.632-26.144-18.144-36.608c-4.512-10.464-6.784-18.56-6.784-24.32 0-10.656 3.904-19.904 11.68-27.68 7.808-7.808 17.024-11.68 27.68-11.68h630.176c10.656 0 19.904 3.904 27.68 11.68 7.808 7.808 11.68 17.024 11.68 27.68s-3.904 19.904-11.68 27.68c-7.808 7.808-17.024 11.68-27.68 11.68h-566.176c9.856 19.68 14.784 32.832 14.784 39.392 0 4.096-0.512 8.608-1.536 13.536s-2.272 10.368-3.68 16.32c-1.44 5.952-2.368 10.368-2.784 13.216l642.464 75.072c10.272 1.216 18.656 5.632 25.216 13.216 6.56 7.648 9.856 16.352 9.856 26.208v315.072c0 10.656-3.904 19.904-11.68 27.712zM705.792 540.832h-57.088v-57.088c0-25.6-20.768-46.368-46.368-46.368s-46.368 20.768-46.368 46.368v57.088h-57.088c-25.6 0-46.368 20.768-46.368 46.368s20.768 46.368 46.368 46.368h57.088v57.088c0 25.6 20.768 46.368 46.368 46.368s46.368-20.768 46.368-46.368v-57.056h57.088c25.6 0 46.368-20.768 46.368-46.368 0-25.632-20.768-46.4-46.368-46.4z" />
<glyph unicode="&#xe615;" glyph-name="cart" d="M787.68 93.536c0-21.728 7.68-40.32 23.072-55.68 15.392-15.392 33.952-23.072 55.68-23.072s40.32 7.68 55.68 23.072c15.392 15.392 23.072 33.952 23.072 55.68s-7.68 40.32-23.072 55.68c-15.392 15.392-33.952 23.072-55.68 23.072s-40.32-7.68-55.68-23.072c-15.36-15.36-23.072-33.92-23.072-55.68zM236.32 93.536c0-21.728 7.68-40.32 23.072-55.68 15.392-15.392 33.952-23.072 55.68-23.072s40.32 7.68 55.68 23.072c15.392 15.392 23.072 33.952 23.072 55.68s-7.68 40.32-23.072 55.68c-15.392 15.392-33.952 23.072-55.68 23.072s-40.32-7.68-55.68-23.072c-15.392-15.36-23.072-33.92-23.072-55.68zM1012.32 790.784c-7.808 7.808-17.024 11.68-27.68 11.68h-739.104c-0.416 2.88-1.344 8.096-2.752 15.68-1.44 7.584-2.56 13.632-3.392 18.144s-2.368 9.952-4.608 16.32c-2.272 6.368-4.928 11.392-8 15.072-3.104 3.712-7.2 6.88-12.32 9.536s-10.976 4-17.536 4h-157.536c-10.656 0-19.904-3.904-27.68-11.68-7.808-7.808-11.712-17.024-11.712-27.68s3.904-19.904 11.68-27.68c7.808-7.808 17.024-11.68 27.68-11.68h125.536l108.96-506.496c-0.832-1.632-5.024-9.44-12.608-23.392s-13.632-26.144-18.144-36.608c-4.512-10.464-6.784-18.56-6.784-24.32 0-10.656 3.904-19.904 11.68-27.68 7.808-7.808 17.024-11.68 27.68-11.68h630.176c10.656 0 19.904 3.904 27.68 11.68 7.808 7.808 11.68 17.024 11.68 27.68s-3.904 19.904-11.68 27.68c-7.808 7.808-17.024 11.68-27.68 11.68h-566.176c9.856 19.68 14.784 32.832 14.784 39.392 0 4.096-0.512 8.608-1.536 13.536s-2.272 10.368-3.68 16.32c-1.44 5.952-2.368 10.368-2.784 13.216l642.464 75.072c10.272 1.216 18.656 5.632 25.216 13.216 6.56 7.648 9.856 16.352 9.856 26.208v315.072c0 10.656-3.904 19.904-11.68 27.712z" />
<glyph unicode="&#xe616;" glyph-name="circle-arrow-left" d="M68.64 190.976c45.792-78.432 107.872-140.512 186.336-186.304 78.432-45.792 164.096-68.672 256.992-68.672s178.56 22.88 256.992 68.672c78.464 45.76 140.576 107.872 186.336 186.304 45.824 78.496 68.704 164.16 68.704 257.056 0 92.864-22.88 178.528-68.672 256.992-45.792 78.432-107.872 140.576-186.304 186.304-78.496 45.792-164.16 68.672-257.056 68.672s-178.56-22.88-256.992-68.672c-78.432-45.76-140.576-107.872-186.336-186.304-45.76-78.496-68.64-164.16-68.64-256.992 0-92.896 22.88-178.624 68.64-257.056v0zM179.328 477.984l60.64 60.704 241.376 241.312c8 8 17.984 12 30.016 12 12 0 21.984-4 29.952-12l60.704-60.704c8.416-8.416 12.672-18.432 12.672-29.952 0-11.552-4.224-21.568-12.672-30.016l-126.016-126.016h334.656c11.584 0 21.568-4.192 30.016-12.64 8.48-8.448 12.672-18.432 12.672-30.016v-85.312c0-11.584-4.192-21.568-12.672-30.016-8.416-8.48-18.432-12.672-30.016-12.672h-334.688l126.016-126.016c8-8 12-17.984 12-30.016 0-12-4-21.984-12-30.016l-60.704-60.64c-8-8-17.984-12-29.952-12-12.032 0-22.016 4-30.016 12l-302.016 302.016c-8 8-12 17.984-12 30.016 0.032 12 4.032 21.984 12.032 29.984v0z" />
<glyph unicode="&#xe617;" glyph-name="circle-arrow-right" d="M955.36 704.992c-45.792 78.432-107.872 140.512-186.336 186.304-78.432 45.792-164.096 68.704-256.992 68.704s-178.56-22.912-256.992-68.672c-78.464-45.76-140.576-107.872-186.336-186.304-45.792-78.496-68.704-164.16-68.704-257.056 0-92.864 22.88-178.528 68.672-256.992 45.792-78.432 107.872-140.544 186.304-186.304 78.496-45.76 164.16-68.672 257.056-68.672s178.56 22.912 256.992 68.672c78.432 45.76 140.544 107.872 186.336 186.304 45.728 78.496 68.64 164.16 68.64 256.992 0 92.896-22.912 178.624-68.64 257.024v0zM844 417.344l-301.952-302.016c-8.032-8-18.016-12-30.016-12s-22.016 4-30.016 12l-301.984 301.984c-8 8-12 17.984-12 30.016 0 11.968 4 21.984 12 29.984l60.672 60.64c8.416 8.416 18.432 12.672 30.016 12.672 11.552 0 21.536-4.224 29.984-12.672l125.984-125.984v334.72c0 11.552 4.224 21.536 12.672 29.984 8.416 8.48 18.464 12.704 30.016 12.704h85.344c11.552 0 21.536-4.224 30.016-12.704 8.416-8.416 12.672-18.432 12.672-29.984v-334.656l125.984 125.984c8 8 17.984 12 29.984 12s21.984-4 30.016-12l60.64-60.64c8.032-8.032 12.032-18.016 12.032-29.984-0.032-12.064-4.032-22.080-12.064-30.048v0z" />
<glyph unicode="&#xe618;" glyph-name="circle-caution" d="M955.36 704.992c-45.792 78.432-107.872 140.512-186.336 186.304-78.432 45.792-164.096 68.704-256.992 68.704s-178.56-22.912-256.992-68.672c-78.464-45.76-140.576-107.872-186.336-186.304-45.792-78.496-68.704-164.16-68.704-257.056 0-92.864 22.88-178.528 68.672-256.992 45.792-78.432 107.872-140.544 186.304-186.304 78.496-45.76 164.16-68.672 257.056-68.672s178.56 22.912 256.992 68.672c78.432 45.76 140.544 107.872 186.336 186.304 45.728 78.496 68.64 164.16 68.64 256.992 0 92.896-22.912 178.624-68.64 257.024v0zM597.376 128.672c0-6.24-2.048-11.424-6.048-15.648-3.936-4.224-8.864-6.304-14.656-6.304h-127.968c-5.792 0-10.912 2.208-15.328 6.656s-6.656 9.568-6.656 15.296v126.656c0 5.792 2.24 10.912 6.656 15.328 4.448 4.448 9.568 6.656 15.328 6.656h127.968c5.792 0 10.72-2.112 14.656-6.336 4-4.224 6.048-9.44 6.048-15.648v-126.656zM596 358.016c-0.448-4.416-2.752-8.352-7.008-11.648-4.224-3.36-9.44-4.992-15.648-4.992h-123.328c-6.176 0-11.552 1.632-15.968 4.992-4.448 3.328-6.688 7.232-6.688 11.648l-11.36 413.984c0 5.312 2.24 9.312 6.656 12 4.448 3.552 9.792 5.344 16.032 5.344h146.656c6.24 0 11.552-1.792 16-5.344 4.448-2.688 6.656-6.688 6.656-12l-12-413.984z" />
<glyph unicode="&#xe619;" glyph-name="circle-cross" d="M955.36 705.024c-45.792 78.432-107.872 140.512-186.336 186.304-78.432 45.76-164.096 68.672-256.992 68.672s-178.56-22.912-256.992-68.672c-78.464-45.76-140.576-107.872-186.368-186.304-45.792-78.496-68.672-164.16-68.672-257.056 0-92.864 22.88-178.528 68.672-256.992 45.792-78.432 107.872-140.576 186.304-186.304 78.496-45.792 164.16-68.672 257.056-68.672s178.56 22.88 256.992 68.672c78.432 45.76 140.576 107.872 186.336 186.304 45.76 78.496 68.64 164.16 68.64 256.992 0 92.896-22.88 178.624-68.64 257.056v0zM753.344 327.328c8.416-8.416 12.672-18.432 12.672-30.016 0-12-4.224-22.208-12.672-30.656l-60-60c-8.416-8.416-18.656-12.672-30.656-12.672-11.552 0-21.568 4.224-30.016 12.672l-120.672 120.672-120.672-120.672c-8.48-8.416-18.464-12.672-30.016-12.672-12.032 0-22.208 4.224-30.688 12.672l-60 60c-8.416 8.448-12.672 18.656-12.672 30.656 0 11.584 4.224 21.568 12.672 30.016l120.704 120.672-120.704 120.704c-8.416 8.416-12.672 18.432-12.672 29.952 0 12.032 4.224 22.24 12.672 30.688l60 60.032c8.48 8.416 18.656 12.672 30.688 12.672 11.552 0 21.536-4.224 30.016-12.672l120.672-120.672 120.672 120.672c8.416 8.416 18.464 12.672 30.016 12.672 12 0 22.208-4.224 30.656-12.672l60-60.032c8.416-8.416 12.672-18.656 12.672-30.688 0-11.552-4.224-21.536-12.672-29.952l-120.672-120.704 120.672-120.672z" />
<glyph unicode="&#xe61a;" glyph-name="circle-information" d="M512 960c-282.784 0-512-229.216-512-512 0-282.752 229.216-512 512-512 282.752 0 512 229.248 512 512 0 282.784-229.248 512-512 512zM427.584 829.952c0 6.176 1.984 11.264 5.984 15.232 3.968 4 9.056 5.984 15.296 5.984h127.52c6.208 0 11.296-1.984 15.232-5.984 3.968-3.968 6.016-9.088 6.016-15.232v-106.272c0-6.208-2.016-11.296-6.016-15.296-3.936-3.968-9.024-5.984-15.232-5.984h-127.52c-6.208 0-11.296 1.984-15.296 5.984-3.968 4-5.984 9.088-5.984 15.296v106.272zM682.592 128.64c0-6.176-1.984-11.264-5.984-15.232-3.968-3.968-9.088-5.984-15.296-5.984h-297.504c-6.208 0-11.296 1.984-15.296 5.984-4 3.968-5.984 9.088-5.984 15.296v106.24c0 6.208 1.984 11.296 5.984 15.296 4 3.968 9.088 5.984 15.296 5.984h63.776v212.544h-63.776c-6.208 0-11.296 1.984-15.296 5.984-4 3.968-5.984 9.056-5.984 15.232v106.272c0 6.208 1.984 11.296 5.984 15.296 4 3.968 9.088 5.984 15.296 5.984h212.544c6.208 0 11.296-1.984 15.232-5.984 3.968-4 6.016-9.088 6.016-15.296v-340.032h63.712c6.208 0 11.296-1.984 15.296-5.984 3.968-3.968 5.984-9.088 5.984-15.296v-106.304z" />
<glyph unicode="&#xe61b;" glyph-name="circle-question" d="M955.36 705.024c-45.792 78.432-107.872 140.512-186.336 186.304-78.432 45.76-164.096 68.672-256.992 68.672s-178.56-22.912-256.992-68.672c-78.464-45.76-140.576-107.872-186.368-186.304-45.792-78.496-68.672-164.16-68.672-257.056 0-92.864 22.88-178.528 68.672-256.992 45.792-78.432 107.872-140.576 186.304-186.304 78.496-45.792 164.16-68.672 257.056-68.672s178.56 22.88 256.992 68.672c78.432 45.76 140.576 107.872 186.336 186.304 45.76 78.496 68.64 164.16 68.64 256.992 0 92.896-22.88 178.624-68.64 257.056v0zM597.376 127.968c0-6.208-2.048-11.328-6.048-15.296-3.968-4-9.056-5.984-15.296-5.984h-128c-6.208 0-11.328 1.984-15.328 5.984s-5.984 9.088-5.984 15.296v128c0 6.24 1.984 11.36 5.984 15.328 4.032 4 9.152 5.984 15.328 5.984h128c6.24 0 11.36-1.984 15.296-5.984 4-4 6.048-9.088 6.048-15.328v-128zM759.712 522.016c-5.568-16.448-11.776-29.92-18.688-40.352-6.88-10.432-16.768-21.088-29.632-32-12.864-10.88-23.104-18.656-30.688-23.328-7.552-4.672-18.464-10.976-32.64-18.976-14.656-8.448-26.784-19.456-36.32-32.992-9.536-13.6-14.336-24.576-14.336-32.992 0-6.24-1.984-11.36-5.984-15.328-4.064-4.032-9.152-6.048-15.392-6.048h-128c-6.208 0-11.328 1.984-15.296 5.984-4.032 4-5.984 9.12-5.984 15.328v24c0 29.76 11.616 57.664 34.976 83.68s49.024 45.216 77.024 57.632c21.344 9.792 36.448 19.776 45.312 30.016 8.896 10.24 13.344 23.776 13.344 40.672 0 14.656-8.352 27.776-25.024 39.36-16.672 11.552-35.648 17.312-56.96 17.312-23.136 0-42.24-5.312-57.344-16-14.688-10.656-33.792-31.136-57.344-61.344-4.032-5.344-9.6-8.032-16.704-8.032-5.312 0-9.568 1.376-12.672 4l-88 66.688c-10.24 8-12 17.344-5.344 28 56.896 94.656 139.36 142.016 247.36 142.016 38.688 0 76.448-9.12 113.344-27.36 36.864-18.176 67.648-44 92.32-77.312 24.64-33.312 36.992-69.568 36.992-108.672-0.032-19.52-2.816-37.536-8.32-53.952v0z" />
<glyph unicode="&#xe61c;" glyph-name="circle-tick" d="M512 960c-282.784 0-512-229.216-512-512s229.216-512 512-512c282.784 0 512 229.216 512 512s-229.216 512-512 512zM478.336 193.76c-8.32-8.256-18.112-12.416-29.44-12.416-11.36 0-21.184 4.16-29.44 12.416l-234.272 234.24c-8.256 8.32-12.416 18.112-12.416 29.472 0 11.328 4.16 21.184 12.416 29.44l66.752 66.752c8.32 8.256 18.112 12.416 29.44 12.416 11.392 0 21.184-4.16 29.44-12.416l138.080-138.048 305.568 305.568c8.288 8.288 18.112 12.448 29.44 12.448s21.152-4.16 29.44-12.448l66.752-66.752c8.288-8.32 12.416-18.112 12.416-29.472 0-11.328-4.16-21.184-12.416-29.44l-401.76-401.76z" />
<glyph unicode="&#xe61d;" glyph-name="cross" d="M824.032 960c-22.72 0-42.208-8.096-58.528-24.416l-253.504-253.536-253.568 253.536c-16.224 16.256-35.744 24.384-58.496 24.416-22.72 0-42.272-8.16-58.496-24.416l-117.024-116.992c-16.256-16.256-24.384-35.744-24.416-58.528 0.032-22.752 8.16-42.272 24.416-58.528l253.536-253.536-253.536-253.536c-16.256-16.224-24.384-35.744-24.416-58.496 0.032-22.784 8.16-42.272 24.416-58.528l117.024-117.056c16.256-16.256 35.744-24.384 58.464-24.384 22.816 0 42.272 8.16 58.528 24.416l253.568 253.568 253.568-253.568c16.256-16.256 35.744-24.352 58.528-24.384 22.752 0.032 42.272 8.16 58.528 24.384l116.992 116.992c16.288 16.288 24.384 35.808 24.384 58.528 0 22.816-8.16 42.272-24.384 58.528l-253.568 253.568 253.568 253.568c16.224 16.256 24.384 35.712 24.352 58.464 0.032 22.752-8.064 42.272-24.32 58.528l-117.056 117.024c-16.288 16.224-35.744 24.384-58.56 24.384v0z" />
<glyph unicode="&#xe61e;" glyph-name="delivery" d="M953.76 547.968c0-52.224-25.696-98.4-65.088-126.688 10.56-1.312 21.12-2.816 31.488-4.576 29.472 30.272 47.68 71.584 47.68 117.184 0 70.080-42.912 130.080-103.872 155.296 53.024-24.896 89.792-78.752 89.792-141.216zM791.392 677.792l-4.64-28.896 49.632 48.96-49.632 48.96 3.808-22.432c-84.512-4.608-153.408-67.776-166.976-149.6 11.040-9.088 24.16-20.224 38.112-32.16 3.488 71.2 59.104 128.736 129.696 135.168zM193.76 298.112c-41.12 0-74.432-33.344-74.432-74.432 0-41.12 33.344-74.432 74.432-74.432 41.12 0 74.432 33.344 74.432 74.432 0.032 41.088-33.312 74.432-74.432 74.432zM193.76 186.656c-20.448 0-36.992 16.576-36.992 37.024s16.576 37.024 36.992 37.024c20.448 0 37.024-16.576 37.024-37.024s-16.576-37.024-37.024-37.024zM849.376 298.112c-41.12 0-74.432-33.344-74.432-74.432 0-41.12 33.344-74.432 74.432-74.432 41.12 0 74.432 33.344 74.432 74.432 0.032 41.088-33.312 74.432-74.432 74.432zM849.376 186.656c-20.448 0-36.992 16.576-36.992 37.024s16.576 37.024 36.992 37.024c20.448 0 37.024-16.576 37.024-37.024s-16.576-37.024-37.024-37.024zM230.528 520.064h54.368v-48.256h-54.368v48.256zM230.528 419.712h54.368v-22.208h-54.368v22.208zM994.912 332.416c0 0-5.6 44.16-71.232 58.208-59.072 12.64-134.784 13.024-154.72 26.048-19.904 13.024-169.568 147.968-189.184 157.76-8.192 4.096-28.48 4.672-43.648 4.448v0.128h-437.696c-43.36 0-78.496-35.136-78.496-78.496v-227.936c-6.272-3.52-19.936-12.576-19.936-24.416 0-15.328 8.416-42.88 83.488-42.88 4 0 10.048 0 17.888 0-1.184 5.952-1.824 12.096-1.824 18.368 0 52.032 42.176 94.208 94.208 94.208s94.208-42.176 94.208-94.208c0-6.304-0.64-12.448-1.824-18.368 142.688 0 330.72 0 470.848 0-1.184 5.952-1.824 12.096-1.824 18.368 0 52.032 42.176 94.208 94.208 94.208s94.208-42.176 94.208-94.208c0-6.304-0.64-12.448-1.824-18.368 7.584 0 11.776 0 11.776 0s70.464 9.184 70.464 74.272c0 36.256-29.088 52.864-29.088 52.864zM349.248 419.712h-52.096v-34.464h-78.88v34.464h-52.064v52.096h52.096v60.512h78.88v-60.512h52.096v-52.096zM467.2 415.136v131.744h53.6v-0.128c15.168 0.192 35.456-0.384 43.648-4.448 14.336-7.168 98.24-81.28 150.048-125.664l0.064-1.472h-247.36zM775.648 558.080l-43.552-57.728c-1.376-1.984-2.304-3.424-2.816-4.48-0.64-1.248-0.96-2.528-0.96-3.808 0-1.792 0.768-3.648 2.272-5.504 1.632-2.016 4.416-3.008 8.448-3.008h61.024c2.496 0 4.608 0.864 6.336 2.592s2.592 3.872 2.592 6.336c0 2.496-0.864 4.608-2.592 6.336s-3.872 2.592-6.336 2.592h-43.264l39.584 52.16c2.080 2.784 3.744 5.408 4.992 7.872s2.176 4.832 2.816 7.072c0.64 2.24 1.024 4.448 1.152 6.528 0.128 1.984 0.192 3.904 0.192 5.664 0 4.384-0.864 8.576-2.56 12.544-1.696 3.904-4.16 7.488-7.296 10.592s-6.976 5.6-11.424 7.392c-4.448 1.792-9.44 2.72-14.88 2.72-6.752 0-12.864-1.12-18.112-3.36-5.28-2.24-9.76-5.344-13.344-9.216-3.552-3.84-6.272-8.352-8.128-13.376-1.856-4.992-2.784-10.272-2.784-15.712 0-10.24 6.144-11.776 9.824-11.776 2.112 0 4.096 0.64 5.92 1.888 2.112 1.44 3.2 3.936 3.2 7.424 0 3.68 0.48 7.168 1.408 10.432 0.928 3.2 2.304 6.016 4.064 8.384 1.728 2.304 3.904 4.16 6.4 5.472s5.472 1.952 8.864 1.952c5.12 0 9.28-1.568 12.704-4.832 3.392-3.2 5.056-7.264 5.056-12.384 0-3.392-0.8-6.88-2.368-10.4-1.664-3.616-3.808-7.072-6.432-10.368zM811.68 528.48c-0.864-1.76-1.28-3.392-1.28-4.896 0-2.208 0.64-4 1.888-5.408 1.344-1.504 3.648-2.24 7.040-2.24h48v-22.080c0-3.104 0.928-5.632 2.784-7.488s4.288-2.784 7.232-2.784c2.976 0 5.408 0.928 7.232 2.784s2.752 4.384 2.752 7.488v22.080h5.728c2.496 0 4.64 0.864 6.336 2.592 1.728 1.728 2.592 3.872 2.592 6.336 0 2.496-0.864 4.608-2.592 6.336s-3.872 2.592-6.336 2.592h-5.696v65.152c0 5.184-1.376 9.024-4.128 11.456-2.656 2.336-6.016 3.52-9.952 3.52-3.072 0-5.728-0.576-7.936-1.728-2.24-1.184-4.32-3.296-6.176-6.304l-44.544-72.192c-1.216-1.92-2.208-3.68-2.944-5.216zM867.36 587.744v-53.92h-31.392l31.392 53.92z" />
<glyph unicode="&#xe61f;" glyph-name="doctor" d="M512 447.968c70.688 0 131.008 25.024 180.992 75.040 50.048 49.984 75.008 110.304 75.008 180.992 0 70.656-24.96 130.976-75.008 180.992-49.984 49.984-110.304 75.008-180.992 75.008s-131.008-25.024-180.992-75.008c-50.016-50.016-75.008-110.336-75.008-180.992 0-70.688 24.992-131.008 75.008-180.992 49.984-50.016 110.304-75.040 180.992-75.040v0zM977.664 195.968c-2.464 28.032-7.776 58.72-16 92.032-8.192 33.312-18.784 62.752-31.648 88.32-12.896 25.568-30.88 48.416-54.016 68.672-23.104 20.224-49.792 33.632-80 40.32 3.552-8.448 6.432-17.344 8.672-26.656 2.24-9.344 3.808-19.776 4.672-31.328s1.44-20.768 1.664-27.68c0.192-6.912 0.192-17.536 0-32-0.224-14.464-0.352-23.904-0.352-28.32 26.208-15.104 46.976-35.872 62.336-62.336 15.36-26.432 23.008-54.752 23.008-84.992v-59.328c14.208-12.864 21.344-28.64 21.344-47.296 0-17.792-6.24-32.896-18.656-45.344-12.448-12.416-27.552-18.656-45.344-18.656s-32.896 6.24-45.344 18.656c-12.416 12.48-18.656 27.584-18.656 45.344 0 18.656 7.104 34.432 21.344 47.296v59.328c0 23.136-8.416 43.168-25.344 60-16.896 16.896-36.864 25.344-60 25.344-23.104 0-43.104-8.448-60-25.344-16.864-16.864-25.344-36.864-25.344-60v-59.328c14.24-12.864 21.344-28.64 21.344-47.296 0-17.792-6.24-32.896-18.656-45.344-12.48-12.416-27.552-18.656-45.344-18.656s-32.896 6.24-45.312 18.656c-12.48 12.48-18.656 27.584-18.656 45.344 0 18.656 7.104 34.432 21.28 47.296v59.328c0 47.136 16.704 87.328 50.016 120.672s73.536 50.016 120.672 50.016v42.688c0 27.52-5.568 48.224-16.672 62.016-58.688-46.272-124.224-69.376-196.704-69.376-72.448 0-138.016 23.104-196.672 69.376-11.104-13.792-16.672-34.496-16.672-62.016v-135.328c25.344-8.896 45.888-24.448 61.664-46.688 15.776-22.272 23.68-46.912 23.68-74.048 0-35.52-12.416-65.76-37.312-90.656s-55.136-37.312-90.72-37.312c-35.552 0-65.76 12.416-90.656 37.312-24.864 24.896-37.28 55.136-37.28 90.656 0 27.136 7.744 51.776 23.328 74.048 15.552 22.208 36.192 37.76 62.016 46.688v135.328c0 30.208 4.864 56.896 14.656 80-30.24-6.688-56.896-20.096-80.032-40.32-23.104-20.256-41.12-43.168-53.984-68.672-12.896-25.568-23.456-55.008-31.68-88.32s-13.536-64-16-92.032c-2.432-28-3.68-57.088-3.68-87.328 0-53.76 16.224-95.968 48.672-126.656 32.48-30.72 75.584-46.048 129.344-46.048h582.72c53.792 0 96.864 15.328 129.344 45.984 32.448 30.688 48.672 72.864 48.672 126.656-0.032 30.24-1.28 59.36-3.712 87.328v0zM213.344 149.312c0-11.552 4.192-21.536 12.672-30.016 8.416-8.416 18.4-12.64 29.984-12.64 11.552 0 21.536 4.224 30.016 12.672 8.416 8.48 12.672 18.464 12.672 30.016s-4.224 21.568-12.672 30.016c-8.48 8.384-18.464 12.64-30.016 12.64-11.584 0-21.568-4.224-29.984-12.672-8.48-8.448-12.672-18.464-12.672-30.016v0z" />
<glyph unicode="&#xe620;" glyph-name="key" d="M1008.64 156.16l-315.616 315.616c15.36 40.16 23.776 83.904 23.776 129.824 0 199.68-158.72 358.4-358.4 358.4s-358.4-158.72-358.4-358.4 158.72-358.4 358.4-358.4c45.92 0 89.664 8.416 129.824 23.776l74.976-74.976h102.4v-102.4h102.4v-102.4l35.84-35.84c10.24-10.24 20.48-15.36 35.84-15.36h133.12c30.72 0 51.2 20.48 51.2 51.2v133.12c0 15.36-5.12 25.6-15.36 35.84zM281.6 550.4c-71.68 0-128 56.32-128 128s56.32 128 128 128 128-56.32 128-128-56.32-128-128-128z" />
<glyph unicode="&#xe621;" glyph-name="lock" d="M910.496 474.208c-13.568 13.568-30.016 20.352-49.44 20.352h-23.264v139.648c0 89.216-32 165.792-95.968 229.76-64.032 64.032-140.608 96.032-229.824 96.032s-165.824-32-229.824-96.032c-63.968-63.968-95.968-140.544-95.968-229.76v-139.648h-23.296c-19.392 0-35.872-6.784-49.472-20.352-13.568-13.6-20.352-30.080-20.352-49.472v-418.88c0-19.392 6.784-35.872 20.352-49.472 13.632-13.568 30.112-20.384 49.472-20.384h698.144c19.392 0 35.872 6.816 49.472 20.352 13.568 13.6 20.352 30.080 20.352 49.472v418.88c0.032 19.424-6.784 35.904-20.384 49.504v0zM698.144 494.56h-372.352v139.648c0 51.392 18.208 95.264 54.56 131.616 36.384 36.352 80.256 54.528 131.648 54.528s95.264-18.176 131.616-54.528c36.352-36.352 54.528-80.224 54.528-131.616v-139.648z" />
<glyph unicode="&#xe622;" glyph-name="mail" d="M453.888 273.28v307.616l233.056-226.080c6.56-5.632 14.688-8.448 22.784-8.448 8.352 0 16.672 2.976 23.328 8.928l221.056 224.288v-306.304h-500.224zM897.504 622.72l-188.192-194.88-196.864 194.88h385.056zM954.496 692.608h-501.024c-38.304 0-69.472-30.976-69.472-69.056v-351.104c0-38.080 31.168-69.056 69.472-69.056h501.056c38.336 0 69.504 30.976 69.504 69.056v351.104c-0.032 38.080-31.2 69.056-69.536 69.056zM279.168 622.72h-244.224c-19.296 0-34.944-15.648-34.944-34.944s15.648-34.944 34.944-34.944h244.224c19.296 0 34.944 15.648 34.944 34.944s-15.648 34.944-34.944 34.944zM279.168 482.944h-162.944c-19.296 0-34.944-15.648-34.944-34.944s15.648-34.944 34.944-34.944h162.944c19.296 0 34.944 15.648 34.944 34.944s-15.648 34.944-34.944 34.944zM279.168 343.168h-69.888c-19.296 0-34.944-15.648-34.944-34.944s15.648-34.944 34.944-34.944h69.888c19.296 0 34.944 15.648 34.944 34.944s-15.648 34.944-34.944 34.944z" />
<glyph unicode="&#xe623;" glyph-name="map-pin" d="M753.344 860c-66.656 66.688-147.136 100-241.344 100s-174.688-33.312-241.344-100c-66.688-66.656-100-147.104-100-241.344 0-48.48 7.36-88.224 22.016-119.36l243.328-516c6.688-14.656 16.992-26.208 31.008-34.656 13.984-8.416 29.024-12.64 44.992-12.64 16.032 0 31.008 4.224 45.024 12.64 13.984 8.448 24.544 20 31.648 34.656l242.656 516c14.688 31.136 22.016 70.88 22.016 119.36 0 94.24-33.344 174.656-100 241.344v0zM632.672 497.984c-33.344-33.312-73.568-49.984-120.672-49.984s-87.328 16.704-120.672 50.016c-33.376 33.312-50.016 73.568-50.016 120.672s16.64 87.328 50.016 120.672c33.344 33.28 73.568 49.952 120.672 49.952s87.328-16.672 120.672-49.984c33.312-33.312 50.016-73.568 50.016-120.672s-16.704-87.328-50.016-120.672v0z" />
<glyph unicode="&#xe624;" glyph-name="new-window" d="M1024 860.32h-810.208v-213.792h-213.792v-610.848h810.208v213.792h213.792v610.848zM707.328 138.56h-604.448v405.088h110.912v-294.176h493.504v-110.912zM921.12 352.352h-604.448v405.088h604.448v-405.088z" />
<glyph unicode="&#xe625;" glyph-name="plus" d="M1003.616 567.296c-13.568 13.568-30.016 20.352-49.472 20.352h-302.528v302.528c0 19.392-6.784 35.872-20.352 49.472-13.568 13.568-30.080 20.352-49.472 20.352h-139.616c-19.392 0-35.872-6.784-49.472-20.352-13.568-13.6-20.352-30.080-20.352-49.472v-302.528h-302.528c-19.392 0-35.872-6.784-49.472-20.352-13.568-13.6-20.352-30.080-20.352-49.472v-139.648c0-19.392 6.784-35.872 20.352-49.408 13.6-13.6 30.080-20.352 49.472-20.352h302.528v-302.592c0-19.392 6.784-35.872 20.352-49.472 13.6-13.568 30.080-20.352 49.472-20.352h139.616c19.424 0 35.904 6.784 49.472 20.352 13.6 13.6 20.352 30.080 20.352 49.472v302.592h302.592c19.392 0 35.872 6.752 49.408 20.352 13.6 13.536 20.384 30.016 20.384 49.408v139.648c-0.032 19.392-6.784 35.872-20.384 49.472v0z" />
<glyph unicode="&#xe626;" glyph-name="refresh" d="M1011.328 904.64c-8.416 8.416-18.464 12.672-30.016 12.672s-21.536-4.224-30.016-12.672l-86.656-85.984c-47.552 44.864-102.016 79.68-163.328 104.32-61.28 24.64-124.416 36.992-189.312 36.992-122.24 0-228.864-36.992-320-110.976-91.104-74.016-151.104-170.56-180-289.696v-4.672c0-5.76 2.112-10.752 6.368-14.976 4.192-4.224 9.216-6.304 14.976-6.304h132.672c9.76 0 16.416 5.12 20 15.296 18.656 44.48 30.432 70.432 35.328 77.984 31.136 50.688 72.48 90.464 124.032 119.36 51.488 28.896 107.072 43.36 166.624 43.36 89.344 0 166.88-30.464 232.704-91.328l-92-92c-8.48-8.448-12.704-18.464-12.704-30.048 0-11.552 4.224-21.536 12.672-29.952 8.416-8.48 18.464-12.672 30.016-12.672h298.656c11.552 0 21.568 4.192 30.016 12.672 8.416 8.416 12.64 18.4 12.64 29.952v298.72c0 11.52-4.192 21.536-12.672 29.952v0zM986.016 362.656h-128c-9.792 0-16.448-5.12-19.968-15.328-18.656-44.448-30.432-70.464-35.36-77.984-31.072-50.656-72.448-90.464-123.968-119.36-51.584-28.896-107.104-43.328-166.656-43.328-43.104 0-84.704 8-124.704 23.968-40 16.032-75.744 38.688-107.328 68.064l91.328 91.296c8.416 8.448 12.64 18.464 12.64 30.016s-4.224 21.568-12.672 29.984c-8.448 8.48-18.464 12.672-30.016 12.672h-298.656c-11.552 0-21.568-4.192-30.016-12.672-8.416-8.416-12.64-18.432-12.64-29.984v-298.656c0-11.552 4.224-21.6 12.672-30.016 8.48-8.416 18.464-12.64 30.016-12.64s21.536 4.224 30.016 12.64l85.984 86.016c47.552-45.344 101.664-80.224 162.304-104.672 60.672-24.448 123.456-36.64 188.352-36.64 121.792 0 228.032 36.96 318.688 110.976s150.176 170.528 178.688 289.632c0.448 0.864 0.64 2.464 0.64 4.672 0 5.792-2.112 10.784-6.368 14.976-4.192 4.256-9.248 6.368-14.976 6.368v0z" />
<glyph unicode="&#xe627;" glyph-name="screen" d="M819.2-12.8h-614.4c0 42.4 34.4 76.8 76.8 76.8h128v89.6h204.8v-89.6h128c42.368 0 76.8-34.4 76.8-76.8zM1024 832v-563.2c0-42.4-34.4-76.8-76.8-76.8h-870.4c-42.432 0-76.8 34.4-76.8 76.8v563.2c0 42.432 34.368 76.8 76.8 76.8h870.368c42.432 0 76.832-34.368 76.832-76.8zM947.2 832h-870.4v-563.2h870.368v563.2zM132.192 716.96c0 38.784 31.424 70.208 70.208 70.208s70.208-31.424 70.208-70.208c0-38.784-31.424-70.208-70.208-70.208s-70.208 31.456-70.208 70.208zM152.256 716.96c0-27.648 22.496-50.144 50.144-50.144s50.144 22.496 50.144 50.144c0 27.648-22.496 50.144-50.144 50.144s-50.144-22.496-50.144-50.144zM202.4 686.88c16.608 0 30.080 13.472 30.080 30.080s-13.472 30.080-30.080 30.080c-16.608 0-30.080-13.472-30.080-30.080s13.472-30.080 30.080-30.080zM361.984 681.76h471.936c18.016 0 32.64 14.624 32.64 32.64v2.72c0 18.048-14.624 32.64-32.64 32.64h-471.936c-18.048 0-32.64-14.624-32.64-32.64v-2.72c0-18.048 14.592-32.64 32.64-32.64zM132.192 550.080c0 38.784 31.424 70.208 70.208 70.208s70.208-31.424 70.208-70.208c0-38.784-31.424-70.208-70.208-70.208s-70.208 31.424-70.208 70.208zM152.256 550.080c0-27.648 22.496-50.144 50.144-50.144s50.144 22.496 50.144 50.144c0 27.648-22.496 50.144-50.144 50.144s-50.144-22.496-50.144-50.144zM202.4 520c16.608 0 30.080 13.472 30.080 30.080s-13.472 30.080-30.080 30.080c-16.608 0-30.080-13.472-30.080-30.080s13.472-30.080 30.080-30.080zM361.984 514.848h471.936c18.016 0 32.64 14.624 32.64 32.64v2.72c0 18.048-14.624 32.64-32.64 32.64h-471.936c-18.048 0-32.64-14.624-32.64-32.64v-2.72c0-18.016 14.592-32.64 32.64-32.64zM132.192 383.168c0 38.784 31.424 70.208 70.208 70.208s70.208-31.424 70.208-70.208c0-38.784-31.424-70.208-70.208-70.208s-70.208 31.456-70.208 70.208zM152.256 383.168c0-27.648 22.496-50.144 50.144-50.144s50.144 22.496 50.144 50.144c0 27.648-22.496 50.144-50.144 50.144s-50.144-22.496-50.144-50.144zM833.92 416h-363.136c4.48-6.528 6.528-14.56 5.312-22.688-1.856-12.384-10.784-22.528-22.816-25.952l-5.536-1.568 11.936-17.824h374.24c18.016 0 32.64 14.624 32.64 32.64v2.72c0 18.048-14.624 32.672-32.64 32.672zM369.952 366.464l41.152-61.44 26.912 18.048-41.152 61.44 47.712 13.472-133.856 85.92 28.576-156.48 30.656 39.040z" />
<glyph unicode="&#xe628;" glyph-name="search" d="M1001.248 70.144l-211.072 211.072c50.848 73.472 76.32 155.296 76.32 245.568 0 58.688-11.392 114.784-34.144 168.32-22.784 53.504-53.536 99.68-92.32 138.432-38.752 38.784-84.896 69.568-138.464 92.32s-109.632 34.144-168.32 34.144c-58.688 0-114.784-11.392-168.32-34.144s-99.712-53.568-138.464-92.32c-38.752-38.752-69.568-84.928-92.32-138.464s-34.144-109.632-34.144-168.32c0-58.688 11.392-114.752 34.144-168.288s53.536-99.68 92.32-138.464c38.752-38.784 84.928-69.568 138.464-92.352 53.536-22.752 109.632-34.144 168.32-34.144 90.24 0 172.128 25.44 245.536 76.352l211.072-210.496c14.752-15.552 33.216-23.36 55.36-23.36 21.344 0 39.84 7.808 55.392 23.392 15.616 15.584 23.392 34.080 23.392 55.392 0 21.728-7.552 40.192-22.752 55.36v0zM628 332c-53.952-53.952-118.88-80.928-194.752-80.928-75.904 0-140.8 27.008-194.784 80.928-53.952 53.952-80.896 118.88-80.896 194.784s26.944 140.864 80.896 194.784c53.952 53.952 118.88 80.928 194.784 80.928s140.8-26.976 194.752-80.928c53.952-53.92 80.96-118.88 80.96-194.784 0-75.936-27.008-140.832-80.96-194.784v0z" />
<glyph unicode="&#xe629;" glyph-name="star" d="M1024 564.032l-316.512-230.080 121.696-373.696-317.184 230.752-317.824-230.72 121.664 373.664-315.84 230.080h390.304l121.696 371.712 121.024-371.712h390.976z" />
<glyph unicode="&#xe62a;" glyph-name="talk" d="M604.288 304.32c61.92 26.080 110.752 61.6 146.592 106.56 35.776 44.928 53.696 93.92 53.696 146.848 0 52.96-17.92 101.888-53.696 146.848-35.808 44.96-84.672 80.48-146.592 106.56-61.888 26.112-129.216 39.136-201.984 39.136s-140.128-13.056-202.016-39.136c-61.888-26.080-110.752-61.632-146.56-106.56-35.808-44.96-53.728-93.888-53.728-146.848 0-45.344 13.536-88 40.576-128.032 27.040-40 64.16-73.728 111.456-101.12-3.84-9.184-7.744-17.536-11.712-25.184-4-7.616-8.768-14.944-14.304-21.984-5.504-7.040-9.792-12.576-12.832-16.576s-8-9.632-14.848-16.864c-6.848-7.232-11.232-11.968-13.152-14.272 0 0.384-0.768-0.48-2.272-2.56-1.536-2.080-2.4-3.040-2.592-2.88-0.16 0.192-0.96-0.768-2.272-2.848-1.344-2.112-2.016-3.168-2.016-3.168l-1.472-2.784c-0.544-1.12-0.928-2.272-1.12-3.424-0.16-1.12-0.256-2.4-0.256-3.712 0-1.344 0.16-2.56 0.544-3.712 0.8-4.928 2.976-8.96 6.56-12 3.616-3.072 7.552-4.576 11.712-4.576h1.728c19.040 2.688 35.424 5.728 49.12 9.152 58.688 15.232 111.648 39.616 158.88 73.152 34.272-6.112 67.808-9.152 100.576-9.152 72.736-0.032 140.096 13.024 201.984 39.136v0zM284.608 352.032l-25.184-17.696c-10.656-7.264-22.464-14.72-35.424-22.304l20 48-55.456 32c-36.576 21.344-64.928 46.464-85.152 75.392-20.16 28.992-30.272 59.072-30.272 90.304 0 38.88 14.976 75.232 44.864 109.152 29.92 33.92 70.208 60.768 120.896 80.608 50.656 19.776 105.12 29.696 163.424 29.696 58.272 0 112.736-9.888 163.424-29.696 50.656-19.84 90.976-46.688 120.864-80.576s44.864-70.272 44.864-109.152c0-38.88-14.976-75.232-44.864-109.152-29.888-33.888-70.208-60.8-120.864-80.576-50.688-19.808-105.152-29.696-163.424-29.696-28.576 0-57.696 2.656-87.424 7.968l-30.272 5.728zM983.456 283.2c27.040 39.808 40.544 82.56 40.544 128.256 0 46.848-14.272 90.688-42.848 131.456-28.576 40.736-67.424 74.656-116.576 101.696 8.768-28.608 13.152-57.536 13.152-86.88 0-51.040-12.736-99.424-38.304-145.152-25.504-45.696-62.080-86.048-109.728-121.12-44.192-32-94.496-56.576-150.848-73.728-56.384-17.12-115.232-25.696-176.576-25.696-11.392 0-28.192 0.768-50.272 2.272 76.576-50.272 166.496-75.424 269.728-75.424 32.768 0 66.272 3.040 100.576 9.152 47.232-33.536 100.16-57.92 158.848-73.152 13.696-3.424 30.112-6.464 49.152-9.152 4.544-0.384 8.768 0.96 12.576 4s6.304 7.232 7.424 12.576c-0.16 2.272 0 3.52 0.576 3.712 0.544 0.192 0.448 1.44-0.288 3.712-0.8 2.304-1.152 3.456-1.152 3.456l-1.408 2.848c-0.416 0.768-1.056 1.824-2.016 3.104-0.96 1.344-1.728 2.304-2.304 2.88-0.544 0.544-1.408 1.504-2.56 2.848-1.12 1.344-1.888 2.176-2.272 2.56-1.92 2.304-6.304 7.040-13.152 14.272s-11.808 12.832-14.848 16.864c-3.040 4-7.328 9.536-12.832 16.576s-10.272 14.368-14.272 22.016c-4 7.616-7.904 16-11.712 25.152 47.168 27.424 84.32 61.056 111.392 100.896v0z" />
<glyph unicode="&#xe62b;" glyph-name="tick" d="M1024 828.064c0-50.208-22.752-99.104-68.224-146.752l-7.072-7.072-397.76-419.008c-84.544-88.832-156.512-157.472-215.936-205.952s-101.376-72.736-125.824-72.736c-25.728 0-57.728 12.128-95.904 36.352-38.208 24.224-62.848 49.248-74.016 74.976-9.44 21.44-18.336 66.944-26.72 136.448-8.352 69.536-12.544 144.832-12.544 225.92 0 44.192 18.432 85.056 55.36 122.624 36.896 37.536 77.664 56.32 122.272 56.32 42.464 0 67.776-38.848 75.936-116.48 0.864-8.992 1.504-15.68 1.92-19.936 6.848-59.648 14.816-101.28 23.808-124.864 9.024-23.584 21.248-35.392 36.672-35.392 6.432 0 18.432 6.976 36.032 20.928s38.624 32.928 63.072 56.96l408.768 404.8c34.336 34.336 64.992 60.288 92.032 77.888s49.984 26.4 68.864 26.4c14.176 0 24.224-5.376 30.24-16.096 6.016-10.752 9.024-28.768 9.024-54.080v-21.248z" />
<glyph unicode="&#xe62c;" glyph-name="triangle-caution" d="M1014.304 80.992l-438.4 803.68c-6.464 11.808-15.392 21.12-26.816 27.968s-23.776 10.272-37.12 10.272c-13.312 0-25.696-3.424-37.088-10.272-11.424-6.88-20.384-16.16-26.848-27.968l-438.336-803.68c-13.312-23.968-12.928-47.936 1.12-71.904 6.496-11.040 15.328-19.808 26.56-26.24 11.264-6.496 23.328-9.76 36.256-9.76h876.704c12.928 0 24.992 3.264 36.256 9.76 11.232 6.432 20.032 15.2 26.56 26.24 14.080 23.968 14.464 47.904 1.152 71.904v0zM585.088 138.080c0-5.344-1.856-9.792-5.44-13.408s-7.904-5.408-12.832-5.408h-109.6c-4.96 0-9.248 1.792-12.832 5.408-3.616 3.616-5.44 8.064-5.44 13.408v108.448c0 5.344 1.824 9.792 5.44 13.408 3.584 3.616 7.872 5.44 12.832 5.44h109.568c4.96 0 9.248-1.824 12.864-5.44 3.584-3.616 5.408-8.064 5.408-13.408v-108.448h0.032zM583.936 351.52c-0.384-3.808-2.4-6.944-5.984-9.408-3.616-2.464-8.064-3.68-13.408-3.68h-105.6c-5.344 0-9.888 1.216-13.664 3.68-3.84 2.496-5.728 5.6-5.728 9.44l-9.696 260.832c0 5.344 1.92 9.312 5.696 11.968 4.928 4.192 9.504 6.304 13.696 6.304h125.568c4.192 0 8.768-2.080 13.728-6.304 3.808-2.656 5.664-6.272 5.664-10.848l-10.272-261.984z" />
</font>
</defs>
</svg>
